The X-Files: I Want to Believe (2008) (CAM)

Unverified releases of all formats, and DVD-Screeners, cams, TS, etc.

Moderator: Movie Mods

The X-Files: I Want to Believe (2008) (CAM)

Postby spudthedestroyer on Sun Jul 27, 2008 1:44 am

Image
http://www.imdb.com/title/tt0443701/

Former FBI agents Fox Mulder (David Duchovny), a believer in alien abductions, paranormal phenomena and government conspiracies, and Dana Scully (Gillian Anderson), a more pragmatic physician with forensic expertise, team up to find a missing FBI agent by following a trail laid out by a defrocked Catholic priest (Billy Connolly), who's a self-proclaimed psychic.


Also Known As (AKA)
Akte X: Jenseits der Wahrheit Germany
Expedientes secretos X - Quiero creer, Los Argentina
Expedientes secretos X 2, Los Venezuela
Ficheiros Secretos: Quero Acreditar Portugal
The X Files 2 USA (working title)
The X Files: Done One USA (working title)
The X-Files USA (promotional abbreviation)
The X-Files Movie USA (promotional title)
Untitled X Files Sequel USA (working title)
X-Files - Voglio crederci Italy
X-Files: Regeneration France
X-Files: Usko koetuksella Finland

The.X-Files.2008.I.Want.to.Believe.CAM.XVID.SUBBED-LC
700mb
XVID
Audio : English
Subbed : Spanish
http://www.imdb.com/title/tt0443701/
Former FBI agents Fox Mulder (David Duchovny), a believer in alien abductions, paranormal phenomena and government conspiracies, and Dana Scully (Gillian Anderson), a more pragmatic physician with forensic expertise, team up to find a missing FBI agent by following a trail laid out by a defrocked Catholic priest (Billy Connolly), who's a self-proclaimed psychic.
http://www.xfiles.com/
David Duchovny ... Fox Mulder
Gillian Anderson ... Dana Scully
Amanda Peet ... ASAC Dakota Whitney
Billy Connolly ... Father Joseph Crissman
Xzibit ... Agent Mosley Drummy (as Alvin 'Xzibit' Joiner)
Callum Keith Rennie ... 2nd Abductor (Janke Dacyshyn)
Adam Godley ... Father Ybarra

General
Complete name : E:\Emule\The.X-Files.2008.I.Want.to.Believe.CAM.XVID.SUBBED-LC.avi
Format : AVI
Format/Info : Audio Video Interleave
File size : 717 MiB
Duration : 1h 36mn
Overall bit rate : 1039 Kbps
Writing application : VirtualDubMod 1.5.10.2 (build 2540/release)
Writing library : VirtualDubMod build 2540/release

Video
Format : MPEG-4 Visual
Format profile : Streaming Video@L1
Format settings, BVOP : Yes
Format settings, QPel : No
Format settings, GMC : No warppoints
Format settings, Matrix : Default
Muxing mode : Packet Bitstream
Codec ID : XVID
Codec ID/Hint : XviD
Duration : 1h 36mn
Bit rate : 899 Kbps
Width : 640 pixels
Height : 320 pixels
Display aspect ratio : 2.000
Frame rate : 29.970 fps
Resolution : 8 bits
Colorimetry : 4:2:0
Scan type : Progressive
Bits/(Pixel*Frame) : 0.147
Stream size : 621 MiB (87%)
Writing library : XviD 1.2.0.dev47 (UTC 2006-11-01)

Audio
Format : MPEG Audio
Format version : Version 1
Format profile : Layer 3
Codec ID : 55
Codec ID/Hint : MP3
Duration : 1h 36mn
Bit rate mode : Constant
Bit rate : 128 Kbps
Channel(s) : 2 channels
Sampling rate : 48.0 KHz
Resolution : 16 bits
Stream size : 88.3 MiB (12%)
Alignment : Split accross interleaves
Interleave, duration : 33 ms (1.00 video frame)
Interleave, preload duration : 500 ms


Image
Image
Image

ed2k: The.X-Files.2008.I.Want.to.Believe.CAM.XVID.SUBBED-LC.avi  [717.18 Mb] [Stats]
ImageImage
ImageImage
User avatar
spudthedestroyer
Rear Admiral Lieutenant General
 
Posts: 4393
Joined: Sat Apr 17, 2004 8:47 pm
Location: Royal Britannia

Return to Screeners & Unverifed Releases

Who is online

Users browsing this forum: No registered users and 1 guest

cron