Super Force (1990)

Open tracker Sci-Fi torrents and NZB (Newsgroup binaries) only. Release threads structured in the normal way. Read the rules for posting dos and don'ts. The rules for this section are considerably different to the other sections.

Moderator: Movie Mods

Super Force (1990)

Postby video-man on Mon Jan 05, 2009 5:03 am

Super.Force.1990.VhsRip.Xvid.Video-Man

Image

Image

Image

Image


Code: Select all
*******************************************************************************
                           -=@ Super Force 1990 @=-
*******************************************************************************

-------------------------------------------------------------------------------
                              General Information
-------------------------------------------------------------------------------

General
Complete name                    : Super.Force.1990.VhsRip.Xvid.Video-Man.avi

Format                           : AVI
Format/Info                      : Audio Video Interleave
File size                        : 703 MiB
Duration                         : 1h 32mn
Overall bit rate                 : 1 057 Kbps
Writing application              : VirtualDubMod 1.5.10.2 (build 2540/release)
Writing library                  : VirtualDubMod build 2540/release

Video
Format                           : MPEG-4 Visual
Format profile                   : Streaming Video@L1
Format settings, BVOP            : Yes
Format settings, QPel            : No
Format settings, GMC             : No warppoints
Format settings, Matrix          : Default
Muxing mode                      : Packed bitstream
Codec ID                         : XVID
Codec ID/Hint                    : XviD
Duration                         : 1h 32mn
Bit rate                         : 984 Kbps
Width                            : 512 pixels
Height                           : 384 pixels
Display aspect ratio             : 4/3
Frame rate                       : 23.976 fps
Resolution                       : 24 bits
Colorimetry                      : 4:2:0
Scan type                        : Progressive
Bits/(Pixel*Frame)               : 0.209
Stream size                      : 654 MiB (93%)
Writing library                  : XviD 1.1.2 (UTC 2006-11-01)

Audio
Format                           : MPEG Audio
Format version                   : Version 2
Format profile                   : Layer 3
Codec ID                         : 55
Codec ID/Hint                    : MP3
Duration                         : 1h 32mn
Bit rate mode                    : Constant
Bit rate                         : 64.0 Kbps
Channel(s)                       : 2 channels
Sampling rate                    : 22.05 KHz
Resolution                       : 16 bits
Video delay                      : 7ms
Stream size                      : 42.5 MiB (6%)
Alignment                        : Split accross interleaves
Interleave, duration             : 42 ms (1.00 video frame)
Interleave, preload duration     : 500 ms



Video Format.........: xvid
Source...............: VHS
Original Format......: NTSC
Genre................: science Fiction
IMDb Rating..........: 6.3
Movie Information....: http://www.imdb.com/title/tt0098917/

-------------------------------------------------------------------------------
                               Post Information
-------------------------------------------------------------------------------
Posted by............: video-man

-------------------------------------------------------------------------------
                                 Release Notes
-------------------------------------------------------------------------------
2pass encode recorded from a vhs

Plot:
In the year 2020, an astronaut becomes a vigilante when he returns from a
mission to learn his cop brother's been murdered.

Cast
 (Series Cast Summary - 4 of 14)
    Patrick Macnee    ...     E.B. Hungerford (26 episodes, 1990-1992)

    Ken Olandt    ...     Zachary Stone / ... (26 episodes, 1990-1992)
    Larry B. Scott    ...     F.X. Spinner (25 episodes, 1990-1992)
    Lisa Niemi    ...     Carla Frost (23 episodes, 1990-1991)



-------------------------------------------------------------------------------
Generated with Cool NFO Creator - http://fly.to/coolbeans
-------------------------------------------------------------------------------
video-man
Red Shirted Trekker
 
Posts: 1
Joined: Fri Apr 14, 2006 6:27 pm

Return to Torrent and NZB Section

Who is online

Users browsing this forum: Bing [Bot] and 1 guest

cron