Iron Doors (2010)

Verified - Quality retail DVDRips. Xvid or DivX. If its non-retail, poorly mastered or if the rip is low-q, please post in low-q section. Lower quality DVD-rips may be moved to ensure high quality in this section. No VCDs or unverified releases in this section please.

Moderator: Movie Mods

Iron Doors (2010)

Postby elanze on Sun Jul 10, 2011 10:02 pm

hammers66 wrote:Image

[scrape]http://www.imdb.com/title/tt1520956/[/scrape]

Genre : Fantasy / Mystery / Thriller

Plot : A young man must escape from a mysterious locked vault before he dies of dehydration.


Code: Select all
Encoded By .......:UnKnOwN Release Date ......... 2011
Runtime ..........:1:20 Source ......... WTF is that?
IMDb URL .........:http://www.imdb.com/title/tt1520956/ File Type ......... Single AVI
Language .........:English PS3 Compatible ....... Get a Sega Mega Drive and see what happens
File Size ........:1.01gb Genre ......... Horror/Thriller
Video
ID : 0
Format : MPEG-4 Visual
Format profile : Advanced Simple@L5
Format settings, BVOP : Yes
Format settings, QPel : No
Format settings, GMC : No warppoints
Format settings, Matrix : Default (H.263)
Codec ID : XVID
Codec ID/Hint : XviD
Duration : 1h 20mn
Bit rate : 1 378 Kbps
Width : 672 pixels
Height : 384 pixels
Display aspect ratio : 16:9
Frame rate : 23.976 fps
Color space : YUV
Chroma subsampling : 4:2:0
Bit depth : 8 bits
Scan type : Progressive
Bits/(Pixel*Frame) : 0.223
Stream size : 793 MiB (78%)
Writing library : XviD 1.2.1 (UTC 2008-12-04)
Audio
ID : 1
Format : AC-3
Format/Info : Audio Coding 3
Mode extension : CM (complete main)
Codec ID : 2000
Duration : 1h 20mn
Bit rate mode : Constant
Bit rate : 384 Kbps
Channel(s) : 6 channels
Channel positions : Front: L C R, Side: L R, LFE
Sampling rate : 48.0 KHz
Bit depth : 16 bits
Stream size : 221 MiB (22%)
Alignment : Aligned on interleaves
Interleave, duration : 32 ms (0.77 video frame)


http://www.imdb.com/title/tt1520956/

Image

Image

Image

Image

ed2k: Iron.Doors.2010.DVDRiP.AC3.XViD-UNKNOWN.avi  [1020.16 Mb] [Stats]
User avatar
elanze
Owns a Genesis Device
 
Posts: 307
Joined: Tue Aug 02, 2005 11:40 pm

Return to High Quality Section

Who is online

Users browsing this forum: No registered users and 2 guests