Quarantine 2 The Terminal (2011)

Verified - Quality retail DVDRips. Xvid or DivX. If its non-retail, poorly mastered or if the rip is low-q, please post in low-q section. Lower quality DVD-rips may be moved to ensure high quality in this section. No VCDs or unverified releases in this section please.

Moderator: Movie Mods

Quarantine 2 The Terminal (2011)

Postby elanze on Wed Aug 10, 2011 3:06 am

hammers66 wrote:Quarantine 2 The Terminal (2011) DVDRiP-AC3-XViD-SiC

Image

Genre : Horror / Mystery / Sc-Fi / Thriller

Plot : A plane is taken over by a mysterious virus. When the plane lands it is placed under quarantine. Now a group of survivors must band together to survive the quarantine.


Code: Select all
Mediainfo:
General
Complete name : Quarantine.2.Terminal.2011.DVDRiP.XviD-SiC.avi
Format : AVI
Format/Info : Audio Video Interleave
File size : 1.31 GiB
Duration : 1h 26mn
Overall bit rate : 2 167 Kbps

Video
ID : 0
Format : MPEG-4 Visual
Format profile : Advanced Simple@L5
Format settings, BVOP : 1
Format settings, QPel : No
Format settings, GMC : No warppoints
Format settings, Matrix : Default (H.263)
Codec ID : XVID
Codec ID/Hint : XviD
Duration : 1h 26mn
Bit rate : 1 711 Kbps
Width : 720 pixels
Height : 480 pixels
Display aspect ratio : 16:9
Frame rate : 23.976 fps
Standard : NTSC
Color space : YUV
Chroma subsampling : 4:2:0
Bit depth : 8 bits
Scan type : Progressive
Compression mode : Lossy
Bits/(Pixel*Frame) : 0.206
Stream size : 1.03 GiB (79%)
Writing library : XviD 1.2.1 (UTC 2008-12-04)

Audio
ID : 1
Format : AC-3
Format/Info : Audio Coding 3
Mode extension : CM (complete main)
Codec ID : 2000
Duration : 1h 26mn
Bit rate mode : Constant
Bit rate : 448 Kbps
Channel(s) : 6 channels
Channel positions : Front: L C R, Side: L R, LFE
Sampling rate : 48.0 KHz
Bit depth : 16 bits
Compression mode : Lossy
Stream size : 277 MiB (21%)
Alignment : Aligned on interleaves
Interleave, duration : 64 ms (1.53 video frames)
Interleave, preload duration : 192 ms
Title : VTS_01_1 T80 3_2ch 448Kbps DELAY 0ms


http://www.imdb.com/title/tt1699231/

Image

Image

Image

ed2k: Quarantine.2.Terminal.2011.DVDRiP.XviD-SiC.avi  [1.31 Gb] [Stats]


hammers66 wrote:Quarantine 2 Terminal (2011) DVDRiP-XViD-ViP3R

Image

Genre : Horror / Mystery / Sc-Fi / Thriller

Plot : A plane is taken over by a mysterious virus. When the plane lands it is placed under quarantine. Now a group of survivors must band together to survive the quarantine.


Code: Select all
Quarantine.2.Terminal.2011.DVDRip.XviD-ViP3R

TiTLE.........[ Quarantine 2: Terminal
AUDiO.........[ 48000Hz 128 kb/s
LANGUAGE......[ English
ViDEO.........[ 1006 kbps XviD 23.976 FPS
RESOLUTiON....[ 640 x 368
ASPECT RATiO..[ 1.739
SUBS..........[ English/French
FiLES.........[ 1
SiZE..........[ 699 MB
RUNTIME.......[ 1:26:18
GENRE.........[ Horror | Mystery | Sci-Fi
RARS..........[ Never

IMDb URL: http://www.imdb.com/title/tt1699231/
IMDB Rating: 5.6/10 (837 votes)
DIRECTOR: John Pogue
WRITER: John Pogue, John Erick Dowdle
CAST:
Mercedes Mas hn, Josh Cooke, Mattie Liptak


http://www.imdb.com/title/tt1699231/

Image

Image

Image

Image

ed2k: Quarantine.2.Terminal.2011.DVDRip.XviD-ViP3R.avi  [698.68 Mb] [Stats]


[ Add all 2 links to your ed2k client ]
User avatar
elanze
Owns a Genesis Device
 
Posts: 307
Joined: Tue Aug 02, 2005 11:40 pm

Return to High Quality Section

Who is online

Users browsing this forum: Bing [Bot] and 1 guest