Priest (2011)

Verified - Quality retail DVDRips. Xvid or DivX. If its non-retail, poorly mastered or if the rip is low-q, please post in low-q section. Lower quality DVD-rips may be moved to ensure high quality in this section. No VCDs or unverified releases in this section please.

Moderator: Movie Mods

Priest (2011)

Postby elanze on Wed Aug 10, 2011 3:20 am

hammers66 wrote:Priest (2011) BDRiP-AC3-XViD-iMAGiNE

Image

Genre : Action / Horror / Sc-Fi / Thriler

Plot : PRIEST, a post-apocalyptic sci-fi thriller, is set in an alternate world -- one ravaged by centuries of war between man and vampires. The story revolves around a legendary Warrior Priest from the last Vampire War who now lives in obscurity among the other downtrodden human inhabitants in walled-in dystopian cities ruled by the Church. When his niece is abducted by a murderous pack of vampires, Priest breaks his sacred vows to venture out on a quest to find her before they turn her into one of them. He is joined on his crusade by his niece's boyfriend, a trigger-fingered young wasteland sheriff, and a former Warrior Priestess who possesses otherworldly fighting skills.


Code: Select all
Ripper ...........: IMAGiNE                                      IMDB Rating.......:5.7/10                             

Video Codec.......: XVID                                         Release Date......:22/07/11

Audio Codec.......: AC-3                                        Theatre Date......:13/05/11

Audio Bitrate.....: 640                                            Runtime...........:1h 27mn

Subtitles.........: NIL                                               Language..........:ENGLISH

Resolution........: 720 x 304                                    IMDb URL..........:http://www.imdb.com/title/tt0822847/

DETAILS:

Video

ID                               : 0
Format                           : MPEG-4 Visual
Format profile                   : Advanced Simple@L5
Format settings, BVOP            : 2
Format settings, QPel            : No
Format settings, GMC             : No warppoints
Format settings, Matrix          : Default (MPEG)
Muxing mode                      : Packed bitstream
Codec ID                         : XVID
Codec ID/Hint                    : XviD
Duration                         : 1h 27mn
Bit rate                         : 1 791 Kbps
Width                            : 720 pixels
Height                           : 304 pixels
Display aspect ratio             : 2.35:1
Frame rate                       : 23.976 fps
Color space                      : YUV
Chroma subsampling               : 4:2:0
Bit depth                        : 8 bits
Scan type                        : Progressive
Compression mode                 : Lossy
Bits/(Pixel*Frame)               : 0.341
Stream size                      : 1.09 GiB (73%)
Writing library                  : XviD 64

Audio

ID                               : 1
Format                           : AC-3
Format/Info                      : Audio Coding 3
Mode extension                   : CM (complete main)
Codec ID                         : 2000
Duration                         : 1h 27mn
Bit rate mode                    : Constant
Bit rate                         : 640 Kbps
Channel(s)                       : 6 channels
Channel positions                : Front: L C R, Side: L R, LFE
Sampling rate                    : 48.0 KHz
Bit depth                        : 16 bits
Compression mode                 : Lossy
Stream size                      : 400 MiB (26%)
Alignment                        : Aligned on interleaves
Interleave, duration             : 42 ms (1.00 video frame)
Interleave, preload duration     : 512 ms


SOURCES:

VIDEO: ........... Priest.2011.BluRay.720p.DTS.x264-CHD thanks
AUDIO: ........... Priest.2011.BluRay.720p.DTS.x264-CHD thanks

NOTES:

IMAGiNE bringing you another release..........Priest
Ok pretty straight forward rip here with just sharpness and resized used.
Audio converted from DTS to AC3 and remuxed....

Enjoy Folks!


http://www.imdb.com/title/tt0822847/

Image

Image

Image

Image

Image

Image

Image

Image

ed2k: Priest.2011.BDRiP.AC3.XViD-iMAGiNE.avi  [1.49 Gb] [Stats]


hammers66 wrote:Priest (2011) DVDRiP-XViD-TWiZTED

Genre : Action / Horror / Sc-Fi / Thriler

Plot : PRIEST, a post-apocalyptic sci-fi thriller, is set in an alternate world -- one ravaged by centuries of war between man and vampires. The story revolves around a legendary Warrior Priest from the last Vampire War who now lives in obscurity among the other downtrodden human inhabitants in walled-in dystopian cities ruled by the Church. When his niece is abducted by a murderous pack of vampires, Priest breaks his sacred vows to venture out on a quest to find her before they turn her into one of them. He is joined on his crusade by his niece's boyfriend, a trigger-fingered young wasteland sheriff, and a former Warrior Priestess who possesses otherworldly fighting skills.


Code: Select all
TWiZTED BRINGZ YOU

Priest.DVDRip.XviD-TWiZTED

RELEASEDATE/////// 29/07/2011
THEATERDATE/////// 05/15/2011
STOREDATE///////// 08/16/2011
SOURCE///////////// R1 DVD9
RUNTIME//////////// 87 min
GENRE////////////// Action Horror Sci-Fi

VIDEO////////////// 1343 kbps
CODEC////////////// XviD
RESOLUTION///////// 624x256
FRAMERATE///////// 23.976 fps
AUDIO////////////// English mp3 128 kb/s 2.0
SUBS/////////////// EN, SPA, FR
DISCS////////////// 1


http://www.imdb.com/title/tt0822847/

Image

Image

Image

Image

Image

ed2k: Priest.2011.DVDRiP.XViD-TWiZTED.avi  [697.20 Mb] [Stats]


[ Add all 2 links to your ed2k client ]
User avatar
elanze
Owns a Genesis Device
 
Posts: 307
Joined: Tue Aug 02, 2005 11:40 pm

Return to High Quality Section

Who is online

Users browsing this forum: No registered users and 2 guests

cron