Blinky TM (2011)

Verified - Quality retail DVDRips. Xvid or DivX. If its non-retail, poorly mastered or if the rip is low-q, please post in low-q section. Lower quality DVD-rips may be moved to ensure high quality in this section. No VCDs or unverified releases in this section please.

Moderator: Movie Mods

Blinky TM (2011)

Postby elanze on Sat Sep 24, 2011 4:36 am

hammers66 wrote:Blinky TM (2011) DVDRiP-XViD-UNKNOWN

Image

Genre : Horror / Sc-Fi

Plot : A story about a boy, his robot and the consequences of his anger at the disintegration of his parents marriage. Alex is looking for the normal loving family life that he hasn't got.


Code: Select all
Encoded By .......:UnKnOwN                                                   ³
³ Runtime ..........:0:15                                                      ³
³ IMDb URL .........:http://www.imdb.com/title/tt1520494/                      ³
³ Language .........:English                                                   ³
³ File Size ........:230mb                                                     ³
³ Release Date ......... 2011                                                  ³
³ Source       ......... Thanks Bud                                            ³
³ File Type    ......... Single AVI                                            ³
³ PS3 Compatible ....... Sure why not                                          ³
³ Genre        ......... Horror/Sci fi/Short                                   ³
³                                                                              ³
³                                                                              ³
³ Video                                                                        ³
³  ID                               : 0                                        ³
³  Format                           : MPEG-4 Visual                            ³
³  Format profile                   : Advanced Simple@L5                       ³
³  Format settings, BVOP            : Yes                                      ³
³  Format settings, QPel            : No                                       ³
³  Format settings, GMC             : No warppoints                            ³
³  Format settings, Matrix          : Custom                                   ³
³  Codec ID                         : XVID                                     ³
³  Codec ID/Hint                    : XviD                                     ³
³  Duration                         : 0h 15mn                                  ³
³  Bit rate                         : 2380Kbps                                 ³
³  Width                            : 720pixels                                ³
³  Height                           : 304pixels                                ³
³  Display aspect ratio             : 2.35                                     ³
³  Frame rate                       : 23.997fps                                ³
³  Color space                      : YUV                                      ³
³  Chroma subsampling               : 4:2:0                                    ³
³  Bit depth                        : 8 bits                                   ³
³  Scan type                        : Progressive                              ³
³  Bits/(Pixel*Frame)               : 0.234                                    ³
³  Stream size                      : 892 MiB (86%)                            ³
³  Writing library                  : XviD 1.2.1 (UTC 2008-12-04)              ³
³                                                                              ³
³                                                                              ³
³ Audio                                                                        ³
³ ID                               : 1                                         ³
³ Format                           : MPEG                                      ³
³ Format/Info                      : Version 1                                 ³
³ Mode extension                   : MP3                                       ³
³ Codec ID                         : 2000                                      ³
³ Duration                         : 0h 15mn                                   ³
³ Bit rate mode                    : Constant                                  ³
³ Bit rate                         : 448Kbps                                   ³
³ Channel(s)                       : 6channels                                 ³
³ Channel positions                : Front: L  R                               ³
³ Sampling rate                    : 48.0 KHz                                  ³
³ Bit depth                        : 16 bits                                   ³
³ Stream size                      : 302 MiB                                   ³
³ Alignment                        : Aligned on interleaves                    ³
³ Interleave, duration             : 42 ms (1.00 video frame)                  ³
³ Interleave, preload duration     : 512 ms


http://www.imdb.com/title/tt1520494/

Image

Image

Image

Image

Image

Image

ed2k: Blinky.TM.2011.DVDRiP.XViD-UNKNOWN.avi  [233.81 Mb] [Stats]
User avatar
elanze
Owns a Genesis Device
 
Posts: 307
Joined: Tue Aug 02, 2005 11:40 pm

Return to High Quality Section

Who is online

Users browsing this forum: No registered users and 2 guests

cron