The Sorcerer And The White Snake (2011)

Verified - Quality retail DVDRips. Xvid or DivX. If its non-retail, poorly mastered or if the rip is low-q, please post in low-q section. Lower quality DVD-rips may be moved to ensure high quality in this section. No VCDs or unverified releases in this section please.

Moderator: Movie Mods

The Sorcerer And The White Snake (2011)

Postby elanze on Sun Dec 25, 2011 4:52 am

Image

http://www.imdb.com/title/tt1857913/

http://youtu.be/lRDdw4qsvwk

Action director Ching Siu-Tung helms this fantasy film based on an old Chinese legend about an herbalist who falls in love with a thousand-year-old White Snake disguised as a woman. Jet Li stars as a sorcerer who discovers her true identity and battles to save the man's soul.

Code: Select all
Code: Select all
        General
        Complete name                    : The.Sorcerer.and.the.White.Snake.2011.DVDRip.Xvid-TST.[tugashare.net].avi
        Format                           : [tugashare.net].avi
        Format/Info                      : Audio Video Interleave
        File size                        : 702 MiB
        Duration                         : 1h 42mn
        Overall bit rate                 : 960 Kbps
        Writing application              : VirtualDubMod 1.5.4.1 (build 2178/release)
        Writing library                  : VirtualDubMod build 2178/release

        Video
        ID                               : 0
        Format                           : MPEG-4 Visual
        Format profile                   : Advanced Simple@L5
        Format settings, BVOP            : Yes
        Format settings, QPel            : No
        Format settings, GMC             : No warppoints
        Format settings, Matrix          : Custom
        Codec ID                         : XVID
        Codec ID/Hint                    : XviD
        Duration                         : 1h 42mn
        Bit rate                         : 830 Kbps
        Width                            : 608 pixels
        Height                           : 256 pixels
        Display aspect ratio             : 2.35:1
        Frame rate                       : 25.000 fps
        Color space                      : YUV
        Chroma subsampling               : 4:2:0
        Bit depth                        : 8 bits
        Scan type                        : Progressive
        Bits/(Pixel*Frame)               : 0.213
        Stream size                      : 607 MiB (86%)
        Writing library                  : XviD 1.2.1 (UTC 2008-12-04)

        Audio
        ID                               : 1
        Format                           : MPEG Audio
        Format version                   : Version 1
        Format profile                   : Layer 3
        Mode                             : Joint stereo
        Mode extension                   : MS Stereo
        Codec ID                         : 55
        Codec ID/Hint                    : MP3
        Duration                         : 1h 42mn
        Bit rate mode                    : Variable
        Bit rate                         : 118 Kbps
        Nominal bit rate                 : 128 Kbps
        Channel(s)                       : 2 channels
        Sampling rate                    : 48.0 KHz
        Stream size                      : 86.1 MiB (12%)
        Alignment                        : Aligned on interleaves
        Interleave, duration             : 24 ms (0.60 video frame)
        Interleave, preload duration     : 479 ms
        Writing library                  : LAME3.98r
        Encoding settings                : -m j -V 4 -q 2 -lowpass 17 --abr 128
        Language                         : Chinese


Image

ED2K - ed2k: The.Sorcerer.and.the.White.Snake.2011.DVDRip.Xvid-TST.[tugashare.net].avi  [702.48 Mb] [Stats]
English Subtitles - ed2k: The.Sorcerer.and.the.White.Snake.(2011).ENGLISH.DVDRip.XviD-TST.rar  [20.7 Kb] [Stats]

---------------------------------------------------------------------------------------------------------------------------------------------

Code: Select all
Versión:   WZW
Duración:   102 minutos
Vídeo:   XviD 608x256 25 fps 944 Kb/s - AR: 2.35 (DVDRip)
Audio:   Mandarín (VO) AC3 2.0 192 Kb/s


Image

ed2k: The.Sorcerer.And.The.White.Snake.2011.CHINESE.DVDRip.XviD-WZW.(ED2000.COM).avi  [694.92 Mb] [Stats]
English sub: http://www.podnapisi.net/es/ppodnapisi/ ... ?i=1345631

[ Add all 3 links to your ed2k client ]
User avatar
elanze
Owns a Genesis Device
 
Posts: 307
Joined: Tue Aug 02, 2005 11:40 pm

Return to High Quality Section

Who is online

Users browsing this forum: No registered users and 2 guests

cron