The Silencers (1996)

Verified - Rare sci-fi movies from TV, VHS, LaserDisc, or lower quality source. Also a place for lower quality rips.

Moderator: Movie Mods

The Silencers (1996)

Postby elchupacabra on Sun Jan 18, 2009 12:39 pm

RedVeil wrote:@HHAH


Image

Image

Dragan Antulov on IMDb wrote:U.S. Senator is assassinated by Men in Black, mysterious organization which surpresses all knowledge about UFOs. Agent Rafferty from U.S. Secret Service will confront them and discover the sinister truth. The only person that can help him comes from another world.


Code: Select all
---------------------------------- General -----------------------------------
Complete name                    : The.Silencers.[1996].FS.DVDrip.XviD+MP3.avi
Format                           : AVI
Format/Info                      : Audio Video Interleave
File size                        : 700 MiB
Duration                         : 1h 36mn
Overall bit rate                 : 1010 Kbps
 
----------------------------------- Video ------------------------------------
Format                           : MPEG-4 Visual
Format profile                   : Streaming Video@L1
Format settings, BVOP            : Yes
Format settings, QPel            : No
Format settings, GMC             : No warppoints
Format settings, Matrix          : Custom
Codec ID                         : XVID
Codec ID/Hint                    : XviD
Duration                         : 1h 36mn
Bit rate                         : 869 Kbps
Width                            : 576 pixels
Height                           : 432 pixels
Display aspect ratio             : 4/3
Frame rate                       : 25.000 fps
Resolution                       : 8 bits
Colorimetry                      : 4:2:0
Scan type                        : Progressive
Bits/(Pixel*Frame)               : 0.140
Stream size                      : 603 MiB (86%)
Writing library                  : XviD 50
 
----------------------------------- Audio ------------------------------------
Format                           : MPEG Audio
Format version                   : Version 1
Format profile                   : Layer 3
Codec ID                         : 55
Codec ID/Hint                    : MP3
Duration                         : 1h 36mn
Bit rate mode                    : Constant
Bit rate                         : 128 Kbps
Channel(s)                       : 2 channels
Sampling rate                    : 48.0 KHz
Resolution                       : 16 bits
Stream size                      : 88.7 MiB (13%)
Alignment                        : Aligned on interleaves
Interleave, duration             : 24 ms (0.60 video frame)
Interleave, preload duration     : 480 ms


Image

Image Image Image

Image Image Image

Director:
Richard Pepin

Cast:
Jack Scalia
Dennis Christopher
Carlos Lauchu
Lucinda Weist
Clarence Williams III

ED2K download link:
ed2k: The.Silencers.[1996].FS.DVDrip.XviD+MP3.avi  [700.23 Mb] [Stats]

Thanks to:
elchupacabra - for his help in the ripping process
elguaxo - for his help and the French video stream (without hardcoded subtitles)
DoSSeR - for the English audio stream (shame on you using hardcoded subtitles!)

Notes:
This is a combination of the video and audio stream from two different rips.
The video had to be cropped correctly and some filters were applied to improve the result.
No rippers name is contained in the file name, because none deserves to be mentioned. Sorry!
User avatar
elchupacabra
Red Shirted Trekker
 
Posts: 13
Joined: Sat Jan 26, 2008 6:46 pm
Location: Milkyway

Return to Lower Quality section

Who is online

Users browsing this forum: Bing [Bot] and 1 guest

cron